<?xml version="1.0" standalone="no"?>
<!DOCTYPE svg PUBLIC "-//W3C//DTD SVG 1.1//EN" "http://www.w3.org/Graphics/SVG/1.1/DTD/svg11.dtd" >
<svg xmlns="http://www.w3.org/2000/svg">
<metadata>
This is a custom SVG webfont generated by Font Squirrel.
Copyright   : Copyright  2000 Adobe Systems Incorporated All Rights Reserved US Patent Des pending
Designer    : Robert Slimbach and Carol Twombly
Foundry URL : httpwwwadobecomtype
</metadata>
<defs>
<font id="MyriadProSemibold" horiz-adv-x="1097" >
<font-face units-per-em="2048" ascent="1536" descent="-512" />
<missing-glyph horiz-adv-x="423" />
<glyph unicode=" "  horiz-adv-x="423" />
<glyph unicode="&#x09;" horiz-adv-x="423" />
<glyph unicode="&#xa0;" horiz-adv-x="423" />
<glyph unicode="!" horiz-adv-x="514" d="M102 137q0 72 43 116t113 44t112 -44t42 -116q0 -70 -43 -115t-113 -45h-2q-66 0 -109 46.5t-43 113.5zM123 1380h266l-37 -952h-192z" />
<glyph unicode="&#x22;" horiz-adv-x="757" d="M86 1417h231l-41 -526h-149zM440 1417h232l-41 -526h-150z" />
<glyph unicode="#" horiz-adv-x="1077" d="M76 383v158h194l35 260h-174v157h199l51 373h154l-52 -373h199l53 373h154l-51 -373h166v-157h-191l-35 -260h172v-158h-196l-54 -383h-155l53 383h-199l-51 -383h-158l54 383h-168zM426 541h197l34 260h-196z" />
<glyph unicode="$" d="M123 113l55 192q154 -88 320 -88q98 0 158.5 44t60.5 116q0 70 -54.5 117t-170.5 90q-174 63 -264.5 147t-90.5 219q0 131 88 226.5t242 121.5v199h168v-188q158 -4 283 -70l-56 -186q-150 69 -274 69h-4q-100 0 -147.5 -42t-47.5 -101q0 -61 56.5 -104.5t191.5 -96.5 q176 -66 254 -153.5t78 -225.5q0 -135 -91.5 -235.5t-254.5 -128.5v-211h-168v199q-201 6 -332 90z" />
<glyph unicode="%" horiz-adv-x="1720" d="M57 936q0 188 97.5 303t253.5 115h2q154 0 243.5 -107.5t89.5 -290.5q0 -199 -100 -310t-245.5 -111t-242 107.5t-98.5 293.5zM250 942v-11q0 -111 39 -181q41 -74 112 -74q150 0 150 270q0 266 -150 266h-2q-72 0 -110.5 -75.5t-38.5 -194.5zM399 -25l772 1379h146 l-774 -1379h-144zM975 385q0 186 98 301t252 115h2q156 0 246 -107.5t90 -287.5q0 -199 -100.5 -310.5t-247.5 -111.5q-145 0 -241.5 107.5t-98.5 293.5zM1167 391v-11q0 -111 39 -182q41 -73 115 -73q150 0 149 268q1 266 -149 266h-2q-72 0 -112 -75.5t-40 -192.5z" />
<glyph unicode="&#x26;" horiz-adv-x="1320" d="M63 367q0 258 267 399v8q-111 127 -111 275q0 141 102.5 247.5t282.5 106.5q150 0 247 -85t97 -224q0 -215 -286 -361v-8l278 -315q86 135 123 366h227q-57 -336 -215 -516l236 -260h-295l-57 60q-37 40 -52 55q-160 -137 -389 -138q-215 0 -335 115t-120 275zM303 408 q0 -104 69.5 -174t182.5 -70h2q137 0 231 94q-119 123 -346 381q-139 -92 -139 -231zM446 1073q0 -102 99 -221q96 59 141 112.5t45 120.5q0 61 -35.5 108.5t-101.5 47.5h-2q-68 0 -107 -49t-39 -119z" />
<glyph unicode="'" horiz-adv-x="405" d="M86 1417h231l-41 -526h-149z" />
<glyph unicode="(" horiz-adv-x="616" d="M127 586q2 487 250 833h182q-229 -340 -229 -833q0 -477 229 -828h-182q-250 344 -250 828z" />
<glyph unicode=")" horiz-adv-x="616" d="M57 -242q229 346 230 832q0 479 -230 829h183q249 -339 249 -825q0 -485 -249 -836h-183z" />
<glyph unicode="*" horiz-adv-x="894" d="M61 930v176l312 -53v4l-205 256l156 90l120 -301h5l120 301l154 -88l-209 -258v-4l320 53v-176l-322 49v-6l211 -250l-158 -90l-121 303l-4 -2l-123 -303l-149 92l207 252v6z" />
<glyph unicode="+" horiz-adv-x="1220" d="M82 467v160h444v463h170v-463h445v-160h-445v-467h-170v467h-444z" />
<glyph unicode="," horiz-adv-x="483" d="M16 -248q94 264 138 541l264 20q-105 -339 -230 -544z" />
<glyph unicode="-" horiz-adv-x="645" d="M61 459v174h523v-174h-523z" />
<glyph unicode="." horiz-adv-x="483" d="M104 139.5q0 69.5 44.5 115.5t111.5 46q70 0 113 -45t43 -117q0 -70 -43 -116t-113 -46h-2q-68 0 -111 46.5t-43 116z" />
<glyph unicode="/" horiz-adv-x="690" d="M18 -82l498 1485h176l-499 -1485h-175z" />
<glyph unicode="0" d="M70 662q0 317 129 504.5t358 187.5q231 0 351 -185.5t120 -492.5q0 -328 -124.5 -513.5t-360.5 -185.5h-2q-223 0 -346 186.5t-125 498.5zM322 670v-15q0 -227 58 -354q61 -131 167 -131h2q227 0 227 500q0 491 -224 491h-1q-106 0 -167.5 -129t-61.5 -362z" />
<glyph unicode="1" d="M193 1171l325 160h209v-1331h-244v1104h-4l-243 -123z" />
<glyph unicode="2" d="M88 0v152l158 147q256 236 358.5 368t104.5 257q0 100 -57.5 162.5t-180.5 62.5q-139 0 -285 -111l-73 179q170 137 409 137q211 0 325 -115t114 -289q0 -113 -55.5 -225.5t-134.5 -202.5t-212 -211l-115 -100v-4h545v-207h-901z" />
<glyph unicode="3" d="M82 70l57 190q137 -82 303 -82q135 0 202 62.5t67 150.5q0 111 -88 168t-213 57h-115v185h113q100 0 181 47t81 137q0 74 -54.5 121t-158.5 47q-145 0 -273 -84l-57 182q61 41 166.5 72t216.5 31q199 0 307.5 -93.5t108.5 -232.5q0 -106 -62.5 -187t-183.5 -124v-4 q127 -25 210 -113t83 -219q0 -174 -139.5 -289t-378.5 -115q-234 1 -373 93z" />
<glyph unicode="4" d="M39 338v164l545 829h297v-803h172v-190h-172v-338h-238v338h-604zM281 528h362v363q0 72 8 231h-8q-61 -125 -117 -225l-245 -365v-4z" />
<glyph unicode="5" d="M86 55l51 191q129 -70 293 -70q119 0 204 64.5t85 177.5q0 254 -377 254q-80 0 -182 -13l86 672h690v-209h-512l-39 -266q43 6 94 6q197 0 324 -86q174 -111 174 -338q0 -195 -148.5 -328t-388.5 -133q-215 0 -354 78z" />
<glyph unicode="6" d="M66 553q0 377 231 594q180 174 473 196q55 7 127 7v-199h-22q-46 0 -105 -6q-199 -23 -309.5 -129.5t-136.5 -257.5h6q111 129 299 129q176 0 291.5 -118t115.5 -316q0 -197 -131 -336.5t-338 -139.5q-236 0 -368.5 161t-132.5 415zM315 485q4 -139 68.5 -229t181.5 -90 h2q96 0 154.5 75.5t58.5 196.5q0 119 -61.5 191.5t-169.5 72.5q-70 0 -128.5 -37.5t-88.5 -99.5q-16 -33 -17 -80z" />
<glyph unicode="7" d="M109 1124v207h895v-160l-562 -1171h-266l561 1120v4h-628z" />
<glyph unicode="8" d="M70 344q0 233 249 344v6q-202 98 -202 293q0 164 126 265.5t316 101.5h2q203 0 310.5 -100.5t107.5 -235.5q0 -90 -50 -170t-155 -131v-6q115 -43 184.5 -130t69.5 -206q0 -178 -135 -288t-350 -110q-221 0 -347 109t-126 258zM328 373v-11q0 -83 58 -142q63 -64 163 -64 h2q98 0 159.5 56t61.5 142q0 182 -248 250q-92 -27 -144 -88t-52 -143zM356 999q0 -150 217 -208q72 20 119 74.5t47 125.5q0 78 -48 133.5t-140 55.5h-2q-90 0 -141.5 -52.5t-51.5 -128.5z" />
<glyph unicode="9" d="M72 879q0 195 136 335t345 140q225 0 350 -158t125 -410q0 -401 -231 -618q-176 -164 -457 -182q-51 -5 -101 -5l-51 1v198q17 -1 38 -1q43 0 102 5q162 12 270 103q135 106 172 297h-4q-106 -117 -291 -117q-176 0 -289.5 114.5t-113.5 297.5zM322 893q0 -106 58 -175 t161 -69q145 0 215 111q14 29 14 71v10q0 138 -56 229q-58 95 -173 95h-2q-96 0 -156.5 -76.5t-60.5 -195.5z" />
<glyph unicode=":" horiz-adv-x="483" d="M104 137q0 72 43 117t113 45t112 -45t42 -117q0 -70 -43 -115t-113 -45h-2q-66 0 -109 46.5t-43 113.5zM104 827q0 72 43 117t113 45t112 -45t42 -117q0 -70 -43 -114.5t-113 -44.5h-2q-66 0 -109 46t-43 113z" />
<glyph unicode=";" horiz-adv-x="483" d="M18 -248q94 264 138 541l262 20q-105 -339 -230 -544zM119 827q0 72 43 117t112.5 45t111.5 -45t42 -117q0 -70 -43 -114.5t-113 -44.5h-2q-66 0 -108.5 46t-42.5 113z" />
<glyph unicode="&#x3c;" horiz-adv-x="1220" d="M125 469v147l969 471v-182l-770 -360v-4l770 -359v-182z" />
<glyph unicode="=" horiz-adv-x="1220" d="M82 262v160h1057v-160h-1057zM82 676v160h1057v-160h-1057z" />
<glyph unicode="&#x3e;" horiz-adv-x="1220" d="M125 0v182l782 359v4l-782 360v182l971 -466v-156z" />
<glyph unicode="?" horiz-adv-x="876" d="M102 1321q127 84 320 84q180 0 275.5 -89t95.5 -222q0 -70 -30 -138.5t-58.5 -106.5t-88.5 -106q-108 -123 -108 -259v-17v-45h-221l-4 53q-1 14 -1 28q0 159 124 308q131 156 131 246q0 66 -43 104.5t-127 40.5q-121 0 -205 -61zM236 137q0 70 44 115t111 45 q70 0 113 -44t43 -116q0 -70 -43 -115t-113 -45h-2q-68 0 -110.5 46.5t-42.5 113.5z" />
<glyph unicode="@" horiz-adv-x="1546" d="M96 430q0 324 211 553t547 229q268 0 438 -166.5t170 -424.5q0 -221 -108.5 -354.5t-270.5 -133.5q-70 0 -115.5 43t-47.5 125h-7q-102 -168 -276 -168q-98 0 -161.5 71.5t-63.5 192.5q0 195 136 337.5t347 142.5q141 0 231 -48l-65 -374q-10 -55 -10 -95q0 -105 67 -106 h6q77 0 138 93q65 97 65 265q0 217 -131 352.5t-362 135.5q-250 0 -424 -180.5t-174 -475.5q0 -252 145 -397t379 -145h5q169 0 296 67l35 -104q-158 -78 -369 -78q-262 0 -446.5 177t-184.5 466zM586 414q0 -66 29.5 -103t86.5 -37q70 0 131.5 74t77.5 168l37 211 q-41 12 -82 12q-117 0 -198.5 -96t-81.5 -229z" />
<glyph unicode="A" horiz-adv-x="1302" d="M43 0l442 1380h322l448 -1380h-270l-125 391h-438l-119 -391h-260zM463 582h354l-108 340q-18 57 -70 258h-4q-2 -6 -26.5 -107.5t-39.5 -150.5z" />
<glyph unicode="B" horiz-adv-x="1179" d="M145 4v1356q150 31 369 31q266 0 393 -88q143 -86 144 -261q0 -98 -59.5 -177t-170.5 -120v-6q119 -31 199 -119t80 -221q0 -174 -131 -284q-147 -129 -514 -129q-163 0 -310 18zM395 182q33 -6 133 -6q135 0 221.5 55.5t86.5 176.5q0 115 -88.5 170t-227.5 55h-125v-451 zM395 815h129q129 0 201 54.5t72 144.5q0 190 -258 190q-99 0 -144 -10v-379z" />
<glyph unicode="C" horiz-adv-x="1204" d="M72 674q0 334 207.5 530.5t531.5 196.5q219 0 334 -60l-53 -200q-121 53 -271 53q-217 0 -350 -133t-133 -375q0 -229 127 -362.5t354 -133.5q158 1 275 50l41 -199q-127 -61 -359 -61q-326 0 -515 188t-189 506z" />
<glyph unicode="D" horiz-adv-x="1398" d="M145 1360q188 31 402 31q371 0 561 -160q217 -174 217 -508q0 -354 -215 -549q-207 -188 -625 -188q-188 0 -340 18v1356zM397 190q35 -6 140 -6h7q243 0 378 134q137 136 137 397v7q0 222 -126 346q-128 126 -364 126q-106 0 -172 -14v-990z" />
<glyph unicode="E" horiz-adv-x="1054" d="M145 0v1380h803v-206h-551v-357h521v-205h-521v-405h582v-207h-834z" />
<glyph unicode="F" horiz-adv-x="1042" d="M145 0v1380h799v-206h-547v-381h508v-205h-508v-588h-252z" />
<glyph unicode="G" horiz-adv-x="1363" d="M287 1200q211 195 555 195q231 0 366 -66l-55 -203q-129 59 -313 60q-227 0 -364.5 -130t-137.5 -366q0 -233 131 -366.5t348 -133.5q129 0 191 27v346h-244v199h487v-699q-206 -77 -436 -77h-6q-350 0 -543 184q-192 181 -192 505q0 329 213 525z" />
<glyph unicode="H" horiz-adv-x="1376" d="M145 0v1380h252v-553h584v553h252v-1380h-252v608h-584v-608h-252z" />
<glyph unicode="I" horiz-adv-x="540" d="M145 0v1380h252v-1380h-252z" />
<glyph unicode="J" horiz-adv-x="802" d="M2 10l31 203q70 -25 155 -25q115 0 173.5 68t58.5 238v886h252v-895q0 -272 -119 -390t-338 -118q-125 0 -213 33z" />
<glyph unicode="K" horiz-adv-x="1191" d="M145 0v1380h250v-635h6l101 150l362 485h310l-476 -587l506 -793h-295l-389 633l-125 -148v-485h-250z" />
<glyph unicode="L" horiz-adv-x="1009" d="M145 0v1380h252v-1169h568v-211h-820z" />
<glyph unicode="M" horiz-adv-x="1693" d="M111 0l92 1380h332l180 -555q72 -238 127 -479h6q63 256 137 481l191 553h327l80 -1380h-246l-26 563q-17 378 -17 560v20h-6q-72 -268 -164 -529l-202 -598h-193l-184 590q-84 276 -139 537h-5q-12 -365 -24 -588l-31 -555h-235z" />
<glyph unicode="N" horiz-adv-x="1384" d="M143 0v1380h289l356 -592q141 -240 236 -462l4 2q-22 214 -22 542v29v481h233v-1380h-262l-361 608q-156 268 -245 475l-9 -2q14 -250 15 -587v-494h-234z" />
<glyph unicode="O" horiz-adv-x="1441" d="M74 680q0 317 183 520t474 203q293 0 466 -197.5t173 -500.5q0 -340 -183 -534t-474 -194h-2q-289 0 -463 198t-174 505zM340 686q0 -215 102.5 -360.5t278.5 -145.5h2q178 0 279.5 145.5t101.5 368.5q0 209 -100.5 357.5t-280.5 148.5t-281.5 -148.5t-101.5 -365.5z" />
<glyph unicode="P" horiz-adv-x="1144" d="M145 1362q162 29 385 29q270 0 406 -113q135 -111 135 -305q0 -199 -117 -311q-152 -150 -436 -150q-80 0 -123 10v-522h-250v1362zM395 721q39 -12 123 -12q141 0 222 67.5t81 186.5q0 113 -74.5 173t-205.5 60q-93 0 -146 -12v-463z" />
<glyph unicode="Q" horiz-adv-x="1441" d="M74 678q0 322 182 523.5t477 201.5q293 0 465 -197.5t172 -498.5q0 -240 -98 -407t-258 -230v-9q165 -44 364 -81l-71 -201q-246 68 -539 178q-41 16 -90 20q-256 12 -430 196.5t-174 504.5zM340 684q0 -215 103.5 -359.5t277.5 -144.5h2q176 0 278.5 145.5t102.5 368.5 q0 211 -100.5 358.5t-278.5 147.5q-180 0 -282.5 -148.5t-102.5 -367.5z" />
<glyph unicode="R" horiz-adv-x="1165" d="M145 1360q160 31 381 31q293 0 426 -111q119 -100 119 -279q0 -127 -72.5 -217t-179.5 -127v-6q139 -51 193 -266q92 -352 108 -385h-258q-39 78 -92 326q-31 133 -85 185t-163 56h-127v-567h-250v1360zM395 752h150q127 0 200.5 61t73.5 166q0 109 -70.5 165t-197.5 56 q-107 0 -156 -12v-436z" />
<glyph unicode="S" horiz-adv-x="1062" d="M84 66l57 208q150 -88 334 -88q119 0 184.5 51.5t65.5 137.5q0 78 -56.5 129t-187.5 100q-375 131 -375 400q0 174 134.5 285.5t355.5 111.5q190 0 330 -68l-60 -205q-127 66 -276 66q-113 0 -170.5 -49t-57.5 -117q0 -76 58.5 -123t206.5 -102q182 -70 268 -167t86 -243 q0 -178 -134 -295.5t-388 -117.5q-106 0 -211 25.5t-164 60.5z" />
<glyph unicode="T" horiz-adv-x="1075" d="M16 1169v211h1043v-211h-397v-1169h-252v1169h-394z" />
<glyph unicode="U" horiz-adv-x="1363" d="M143 590v790h252v-805q0 -197 76 -296t207 -99q291 0 291 395v805h252v-788q0 -309 -146.5 -462t-404.5 -153q-250 0 -388.5 148.5t-138.5 464.5z" />
<glyph unicode="V" horiz-adv-x="1230" d="M14 1380h275l188 -628q94 -311 135 -502h4q41 186 142 500l200 630h269l-477 -1380h-289z" />
<glyph unicode="W" horiz-adv-x="1779" d="M31 1380h268l131 -626q53 -258 90 -482h4q16 104 101 486l149 622h264l138 -635q63 -317 84 -466h4q27 170 94 479l143 622h256l-373 -1380h-268l-143 651q-53 240 -78 436h-4q-35 -221 -90 -438l-160 -649h-272z" />
<glyph unicode="X" horiz-adv-x="1216" d="M41 0l410 698l-396 682h291l150 -284q61 -119 112 -232h6q51 119 109 232l147 284h289l-403 -673l420 -707h-293l-148 274l-139 261h-4q-39 -92 -125 -261l-137 -274h-289z" />
<glyph unicode="Y" horiz-adv-x="1177" d="M23 1380h288l164 -354q74 -160 121 -274h4q39 102 119 274l166 354h284l-458 -798v-582h-252v575z" />
<glyph unicode="Z" horiz-adv-x="1159" d="M53 0v139l707 1026v6h-645v209h970v-147l-696 -1018v-6h707v-209h-1043z" />
<glyph unicode="[" horiz-adv-x="616" d="M152 -229v1634h399v-145h-213v-1344h213v-145h-399z" />
<glyph unicode="\" horiz-adv-x="686" d="M14 1403h176l480 -1485h-176z" />
<glyph unicode="]" horiz-adv-x="616" d="M63 -84h213v1344h-213v145h400v-1634h-400v145z" />
<glyph unicode="^" horiz-adv-x="1220" d="M104 373l426 958h162l426 -958h-186l-320 760h-4l-319 -760h-185z" />
<glyph unicode="_" horiz-adv-x="1024" d="M0 -154h1024v-102h-1024v102z" />
<glyph unicode="`" horiz-adv-x="614" d="M25 1430h245l179 -304h-175z" />
<glyph unicode="a" horiz-adv-x="1040" d="M66 274q0 184 156 282q152 96 424 95h11v17q0 68 -43 121t-159 53q-152 0 -269 -74l-49 164q143 88 361 88q221 0 316 -118t95 -304v-358q0 -158 17 -240h-228l-18 111h-6q-102 -133 -295 -134q-143 0 -228 88.5t-85 208.5zM315 301q0 -70 40 -106.5t104 -36.5 q74 0 126 40t72 97q7 18 7 55v137h-14q-334 0 -335 -186z" />
<glyph unicode="b" horiz-adv-x="1198" d="M127 0q8 136 8 279v1177h252v-596h4q102 160 320 160q184 0 300 -141q115 -138 115 -357v-8q0 -254 -134 -395.5t-318 -141.5q-215 0 -316 173h-4l-12 -150h-215zM387 573v-161q0 -31 6 -60q20 -78 82 -127t141 -49q119 0 186.5 88t67.5 240q0 139 -65.5 229t-186.5 90 q-78 0 -140 -51t-83 -133q-8 -37 -8 -66z" />
<glyph unicode="c" horiz-adv-x="919" d="M72 489.5q0 231.5 149.5 381t405.5 149.5q139 0 243 -45l-45 -191q-78 39 -190 39q-141 0 -224 -92q-81 -90 -81 -224v-7q0 -150 86 -236t219 -86q105 0 199 39l34 -186q-111 -51 -282 -51q-233 0 -373.5 139t-140.5 370.5z" />
<glyph unicode="d" horiz-adv-x="1189" d="M72 487v7q0 236 128 380q130 146 318 146q98 0 172 -36t109 -93h4v565h252v-1175q0 -145 8 -281h-223l-13 158h-4q-45 -84 -131 -132.5t-192 -48.5q-182 0 -305 141.5t-123 368.5zM328 498q0 -141 66.5 -229.5t183.5 -88.5q78 0 138 49.5t79 128.5q8 31 8 74v150 q0 37 -6 67q-18 76 -76.5 126t-140.5 50q-119 0 -185.5 -92t-66.5 -235z" />
<glyph unicode="e" horiz-adv-x="1056" d="M72 483q0 221 130 379t357 158q115 0 203 -44t135 -118t69.5 -154.5t22.5 -168.5q0 -62 -8 -107h-668q4 -127 91.5 -192.5t216.5 -65.5q145 0 276 45l37 -172q-147 -63 -348 -63q-240 0 -377 136t-137 367zM313 604h439v7q0 86 -46 160q-48 77 -161 77q-106 0 -164 -76 t-68 -168z" />
<glyph unicode="f" horiz-adv-x="653" d="M29 809v188h135v43q0 225 121 340q102 96 260 97q82 0 160 -25l-17 -195q-51 18 -108 19q-166 0 -166 -227v-52h219v-188h-217v-809h-252v809h-135z" />
<glyph unicode="g" horiz-adv-x="1173" d="M72 494q0 238 133 382t319 144q199 0 289 -156h4l10 133h220q-9 -134 -9 -286v-566q0 -319 -147 -452q-135 -121 -385 -121q-213 0 -348 80l55 190q129 -75 287 -75h4q131 0 209 73.5t78 227.5v86h-5q-96 -147 -290 -148q-186 0 -305 137.5t-119 350.5zM328 502 q0 -133 64.5 -220t178.5 -87q72 0 127.5 42t77.5 111q10 31 10 88v162q0 41 -8 68q-20 72 -73.5 116.5t-131.5 44.5q-109 0 -177 -88t-68 -237z" />
<glyph unicode="h" horiz-adv-x="1171" d="M135 1456h252v-594h4q47 72 125 113q80 45 174 45q145 0 246.5 -105.5t101.5 -326.5v-588h-252v561q0 115 -47 184.5t-145 69.5q-70 0 -122 -40t-75 -101q-10 -29 -10 -76v-598h-252v1456z" />
<glyph unicode="i" horiz-adv-x="524" d="M121 1276q0 59 40 98t101 39q63 0 101 -39t40 -98q0 -57 -39 -96t-102 -39h-2q-61 0 -100 39t-39 96zM135 0v997h252v-997h-252z" />
<glyph unicode="j" horiz-adv-x="552" d="M-86 -240q133 10 188 72q37 37 51.5 111.5t14.5 234.5v819h252v-891q0 -297 -131 -425q-123 -117 -350 -117zM154 1276q0 59 39.5 98t103.5 39q61 0 99 -39t40 -98q0 -57 -39 -96t-102 -39h-2q-63 0 -101 39t-38 96z" />
<glyph unicode="k" horiz-adv-x="1042" d="M135 0v1456h252v-897h4l78 117l244 321h303l-371 -407l422 -590h-309l-287 440l-84 -100v-340h-252z" />
<glyph unicode="l" horiz-adv-x="526" d="M135 0v1456h252v-1456h-252z" />
<glyph unicode="m" horiz-adv-x="1736" d="M127 997h215l12 -147h6q102 170 308 170q96 0 169.5 -50t106.5 -134h4q51 80 121 125q88 59 205 59q139 0 235.5 -105.5t96.5 -326.5v-588h-246v551q0 264 -178 264q-61 0 -108.5 -38t-67.5 -95q-12 -35 -13 -84v-598h-245v578q0 109 -44.5 173t-128.5 64 q-66 0 -113.5 -42t-68.5 -99q-12 -39 -12 -84v-590h-246v700q0 125 -8 297z" />
<glyph unicode="n" horiz-adv-x="1171" d="M127 997h219l12 -149h7q39 70 121.5 121t197.5 51q147 0 250.5 -104.5t103.5 -323.5v-592h-252v563q0 115 -46 183.5t-144 68.5q-72 0 -123 -43t-74 -104q-12 -31 -12 -80v-588h-252v700q0 125 -8 297z" />
<glyph unicode="o" horiz-adv-x="1155" d="M72 492q0 242 143 385t373 143q221 0 358 -142.5t137 -369.5q0 -133 -44 -237.5t-116.5 -167t-162 -94.5t-187.5 -32h-2q-217 0 -358 139.5t-141 375.5zM332 498q0 -147 67.5 -242.5t178.5 -95.5h2q109 0 176 95t67 247q0 133 -61.5 234.5t-179.5 101.5 q-125 0 -187.5 -100.5t-62.5 -239.5z" />
<glyph unicode="p" horiz-adv-x="1198" d="M127 997h221l12 -153h5q115 176 342 176q176 0 297.5 -140.5t121.5 -367.5q0 -254 -134 -394.5t-320 -140.5q-92 0 -167 36t-114 98h-4v-517h-252v1072q0 143 -8 331zM387 418q0 -37 6 -70q20 -78 82 -127t141 -49q119 0 186.5 90t67.5 240q0 137 -65.5 228t-181.5 91 q-80 0 -143.5 -52t-84.5 -134q-8 -41 -8 -64v-153z" />
<glyph unicode="q" horiz-adv-x="1189" d="M72 483q0 256 135 396.5t311 140.5q203 0 291 -154l4 -2l6 133h244q-8 -180 -8 -288v-1115h-252v543h-4q-98 -160 -310 -160q-174 0 -295.5 139.5t-121.5 366.5zM328 496q0 -141 65.5 -230.5t181.5 -89.5q76 0 134.5 45t81.5 121q12 35 12 78v166q0 33 -6 61 q-18 74 -75.5 124t-139.5 50q-121 0 -187.5 -90t-66.5 -235z" />
<glyph unicode="r" horiz-adv-x="729" d="M127 997h217l10 -188h6q35 100 112 155.5t163 55.5q29 0 59 -6v-236q-35 6 -76 6q-88 0 -148 -51t-77 -139q-6 -33 -6 -76v-518h-252v676q0 205 -8 321z" />
<glyph unicode="s" horiz-adv-x="854" d="M74 49l51 184q117 -74 254 -73q160 0 160 112q0 49 -35 80t-129 66q-274 92 -275 291q0 135 103.5 223t273.5 88q158 0 266 -59l-51 -177q-96 57 -211 58q-66 0 -102.5 -30t-36.5 -77q0 -45 37 -73.5t137 -65.5q137 -47 200.5 -120t65.5 -183q0 -141 -106.5 -227 t-298.5 -86q-178 -1 -303 69z" />
<glyph unicode="t" horiz-adv-x="718" d="M35 809v188h141v187l248 69v-256h240v-188h-240v-438q0 -94 29.5 -139.5t99.5 -45.5q61 0 98 11l4 -191q-66 -26 -174 -26h-8q-141 0 -217 81q-80 82 -80 281v467h-141z" />
<glyph unicode="u" horiz-adv-x="1165" d="M131 412v585h252v-542q0 -272 186 -273q72 0 122 40t71 95q14 29 14 78v602h252v-698q0 -135 8 -299h-219l-12 150h-6q-106 -172 -322 -173q-152 0 -249 103.5t-97 331.5z" />
<glyph unicode="v" horiz-adv-x="1040" d="M23 997h272l162 -505q37 -113 67 -250h6q20 88 68 250l160 505h264l-381 -997h-248z" />
<glyph unicode="w" horiz-adv-x="1533" d="M29 997h258l102 -452q41 -174 66 -324h4q10 55 80 322l131 454h204l125 -442q49 -190 80 -334h4q14 111 66 334l111 442h247l-313 -997h-233l-119 406q-45 152 -76 319h-4q-29 -160 -76 -319l-127 -406h-235z" />
<glyph unicode="x" horiz-adv-x="1011" d="M10 0l346 510l-333 487h280l119 -188q33 -51 90 -154h4l88 158l111 184h274l-334 -477l340 -520h-286l-121 201q-39 63 -90 161h-4q-8 -16 -91 -163l-116 -199h-277z" />
<glyph unicode="y" horiz-adv-x="1024" d="M16 997h279l178 -534q33 -100 57 -193h7q39 150 53 195l155 532h269l-250 -680q-102 -276 -180 -419.5t-166 -221.5q-127 -109 -264 -127l-58 211q74 16 146 70q88 57 139 158q14 33 14 45q0 20 -12 49z" />
<glyph unicode="z" horiz-adv-x="921" d="M41 145l375 480l145 168v4h-483v200h790v-153l-364 -469q-98 -119 -148 -170v-4h525v-201h-840v145z" />
<glyph unicode="{" horiz-adv-x="616" d="M59 522v133q96 2 128 42t32 104q0 55 -12 166q-14 96 -14 166q0 137 80.5 204.5t224.5 67.5h57v-145h-37q-141 -2 -141 -160q0 -39 12 -129q12 -94 12 -148q2 -104 -38.5 -158.5t-122.5 -72.5v-4q82 -18 122.5 -72.5t38.5 -159.5q0 -59 -12 -149t-12 -129 q0 -160 143 -162h35v-145h-59q-303 0 -303 280q0 68 14 164q12 111 12 162q0 143 -160 145z" />
<glyph unicode="|" horiz-adv-x="538" d="M178 -512v2048h182v-2048h-182z" />
<glyph unicode="}" horiz-adv-x="616" d="M59 -84h35q143 2 144 162q0 39 -12.5 129t-12.5 149v10q0 97 39 149q41 54 123 73v4q-82 18 -123 73q-39 51 -39 148v10q0 53 12 148q12 90 13 129q0 158 -142 160h-37v145h58q143 0 224 -67.5t81 -204.5q0 -55 -12 -166q-14 -96 -15 -166q0 -63 32 -103.5t128 -42.5 v-133q-160 -2 -160 -145q0 -66 15 -162q12 -111 12 -164q0 -280 -301 -280h-2h-60v145z" />
<glyph unicode="~" horiz-adv-x="1220" d="M94 412v9q0 167 71 252q73 87 195 87q66 0 124.5 -20.5t164.5 -73.5q164 -84 221 -84q90 0 97 168h161q1 -18 1 -36q0 -156 -66 -232q-72 -83 -191 -83q-104 0 -290 95q-162 88 -217 88q-101 0 -109 -170h-162z" />
<glyph unicode="&#xa1;" horiz-adv-x="514" d="M102 848q0 70 43 115t113 45h2q68 0 110 -45t42 -115t-43 -115t-113 -45q-68 0 -111 45t-43 115zM125 -393l37 948h192l37 -948h-266z" />
<glyph unicode="&#xa2;" d="M145 670q0 195 112 335t304 173v200h168v-192q111 -2 207 -45l-45 -189q-82 43 -197 43q-133 0 -213 -89t-80 -226q0 -147 83 -230t208 -83q119 0 217 43l35 -183q-90 -45 -215 -53v-201h-168v205q-184 23 -301 150q-115 131 -115 342z" />
<glyph unicode="&#xa3;" d="M109 0v137q98 45 164.5 134t66.5 194q0 57 -8 108h-205v175h174q-18 125 -18 190q0 188 119.5 302t312.5 114q145 0 231 -49l-45 -191q-74 39 -176 39q-109 0 -158 -61.5t-49 -161.5q0 -86 21 -182h288v-175h-264q1 -24 1 -47q0 -75 -15 -135q-31 -104 -119 -180v-4h576 v-207h-897z" />
<glyph unicode="&#xa4;" d="M47 1079l117 119l149 -166q93 80 236 80h2q141 0 235 -78l152 164l117 -119l-170 -153q67 -101 67 -236q0 -149 -71 -254l163 -157l-114 -117l-146 170q-96 -84 -239 -84q-147 0 -234 80l-143 -166l-115 117l162 151q-76 102 -76 248q0 139 76 248zM334 680 q0 -123 65.5 -191.5t145.5 -68.5q86 0 149.5 67.5t63.5 196.5q0 109 -57.5 182.5t-153.5 73.5h-2q-92 0 -151.5 -73.5t-59.5 -186.5z" />
<glyph unicode="&#xa5;" d="M18 1331h271l174 -370q41 -92 84 -207h4q74 184 86 211l180 366h264l-356 -600h254v-125h-322v-139h322v-125h-322v-342h-237v342h-318v125h318v139h-318v125h254z" />
<glyph unicode="&#xa6;" horiz-adv-x="538" d="M178 356h182v-716h-182v716zM178 664v716h182v-716h-182z" />
<glyph unicode="&#xa7;" horiz-adv-x="1110" d="M104 670q0 68 41 134t121 111q-33 25 -56.5 76t-23.5 105q0 141 118 223t298 82q174 -1 305 -64l-47 -157q-111 61 -258 61q-90 0 -143 -33.5t-53 -89t55 -91.5t180 -75q180 -57 272.5 -130.5t92.5 -211.5q0 -152 -142 -250q86 -72 86 -186q0 -111 -68.5 -185.5 t-160.5 -103t-197 -28.5q-223 0 -356 88l55 155q133 -84 293 -84q92 0 148.5 35t56.5 99q0 59 -51.5 98t-180.5 82q-188 61 -286.5 135t-98.5 205zM303 709q0 -102 195 -174q199 -70 239 -93q68 47 68 129q0 109 -160 168q-225 82 -260 101q-82 -47 -82 -129v-2z" />
<glyph unicode="&#xa8;" horiz-adv-x="614" d="M-23 1280q0 53 37 89t92 36q51 0 86 -36t35 -89t-35 -90t-88 -37h-2q-53 0 -89 37t-36 90zM385 1280q0 53 37 89t90 36t88 -36t35 -89t-35 -90t-88 -37h-4q-51 0 -87 37t-36 90z" />
<glyph unicode="&#xa9;" horiz-adv-x="1386" d="M68 696q0 262 183 446.5t445 184.5h2q258 0 439.5 -184.5t181.5 -446.5q0 -264 -181.5 -449.5t-441.5 -185.5q-262 0 -445 185.5t-183 449.5zM188 692q0 -221 147.5 -374.5t358.5 -153.5h5q208 0 353 153q146 154 146 377q0 221 -146.5 376t-357.5 155h-2 q-211 0 -357.5 -155t-146.5 -378zM350 684q0 170 117 275.5t278 105.5q72 0 137.5 -17.5t88.5 -37.5l-27 -99q-76 47 -199 47q-127 0 -197.5 -72.5t-70.5 -195.5q0 -119 73 -194.5t198 -75.5q127 0 204 51l29 -92q-96 -66 -254 -66q-174 0 -275.5 104.5t-101.5 266.5z" />
<glyph unicode="&#xaa;" horiz-adv-x="743" d="M68 733q0 115 108 177q102 59 276 59h23v16q0 18 -8 37.5t-41 41t-88 21.5q-109 0 -184 -53l-37 113q103 66 251 66q1 0 2 -1q150 0 216.5 -79.5t66.5 -206.5v-219q1 -88 11 -160h-160l-12 76h-5q-82 -86 -204 -86q-98 0 -156.5 56t-58.5 142zM273.5 679.5 q29.5 -24.5 72.5 -24.5q82 0 119 68q14 26 14 49v90h-15q-220 0 -220 -116q0 -42 29.5 -66.5z" />
<glyph unicode="&#xab;" horiz-adv-x="909" d="M55 516l252 385h185l-256 -385l258 -383h-187zM424 516l252 385h186l-258 -385l258 -383h-184z" />
<glyph unicode="&#xac;" horiz-adv-x="1220" d="M82 684v160h1057v-613h-168v453h-889z" />
<glyph unicode="&#xad;" horiz-adv-x="645" d="M61 459v174h523v-174h-523z" />
<glyph unicode="&#xae;" horiz-adv-x="903" d="M96 1057q0 143 104.5 243.5t254.5 100.5h2q145 0 247.5 -100.5t102.5 -243.5q0 -145 -102.5 -246.5t-249.5 -101.5q-150 0 -254.5 101t-104.5 247zM195 1055q0 -111 73.5 -189t184.5 -78h5q106 0 178 76q73 78 73 190.5t-72.5 189.5t-183.5 77h-2q-109 0 -182.5 -77 t-73.5 -189zM313 885v329q53 12 138 13q86 0 122 -27q35 -20 35 -70q0 -57 -71 -77v-4q49 -16 63 -84q14 -61 23 -80h-99q-10 12 -24 76q-8 49 -62 49h-32v-125h-93zM408 1073h32q68 0 68 45t-64 45q-10 0 -22 -1t-14 -1v-88z" />
<glyph unicode="&#xaf;" horiz-adv-x="614" d="M63 1196v145h490v-145h-490z" />
<glyph unicode="&#x2c9;" horiz-adv-x="614" d="M63 1196v145h490v-145h-490z" />
<glyph unicode="&#xb0;" horiz-adv-x="694" d="M55 1112q0 123 86 207t209 84h2q129 0 210 -83t81 -200q0 -125 -88 -207t-207 -82q-127 0 -210 82t-83 199zM197 1114.5q0 -67.5 44 -115t107 -47.5q68 0 111 47.5t43 118.5q0 66 -40 115t-114 49h-2q-68 0 -108.5 -50t-40.5 -117.5z" />
<glyph unicode="&#xb1;" horiz-adv-x="1220" d="M82 0v160h1059v-160h-1059zM82 645v160h444v373h170v-373h445v-160h-445v-383h-170v383h-444z" />
<glyph unicode="&#xb2;" horiz-adv-x="681" d="M27 1004l127 116q141 129 194 193.5t53 130.5q0 53 -34.5 86t-100.5 33q-90 0 -174 -60l-55 127q113 86 278 86q141 0 217 -68.5t76 -170.5q0 -53 -18.5 -101.5t-58 -97.5t-75.5 -82l-100 -88l-55 -49v-4h322v-148h-596v97z" />
<glyph unicode="&#xb3;" horiz-adv-x="671" d="M18 954l43 133q88 -53 195 -53q76 0 119 34t43 81q0 59 -57.5 90t-139.5 31h-57v119h55q66 0 119 25.5t53 78.5q0 37 -29.5 61.5t-87.5 24.5q-94 0 -180 -51l-41 125q102 63 264 63q133 0 204 -56t71 -140q0 -63 -44 -112.5t-118 -72.5v-4q84 -10 139.5 -62t55.5 -130 q0 -104 -94.5 -173t-254.5 -69q-166 0 -258 57z" />
<glyph unicode="&#xb4;" horiz-adv-x="614" d="M178 1126l178 304h246l-250 -304h-174z" />
<glyph unicode="&#xb5;" horiz-adv-x="1167" d="M135 -41v1038h252v-571q0 -113 46 -178.5t138 -65.5q70 0 122 40t75 95q12 31 12 78v602h252v-694q0 -72 20.5 -101.5t67.5 -31.5l-16 -178q-39 -14 -88 -15q-170 0 -203 168h-8q-31 -66 -100.5 -113.5t-163.5 -47.5q-119 0 -176 82v-103q0 -270 22 -369h-223 q-29 78 -29 365z" />
<glyph unicode="&#xb6;" horiz-adv-x="1083" d="M68 926v12q0 81 24 152q27 77 88.5 147t182 109.5t290.5 39.5q184 0 269 -20v-1464h-166v1323h-146v-1323h-166v639h-14q-123 0 -241.5 103.5t-120.5 281.5z" />
<glyph unicode="&#xb7;" horiz-adv-x="483" d="M86 534.5q0 69.5 44 115.5t112 46q70 0 112.5 -45t42.5 -116q0 -70 -42.5 -116t-112.5 -46h-2q-68 0 -111 46t-43 115.5z" />
<glyph unicode="&#x2219;" horiz-adv-x="483" d="M86 534.5q0 69.5 44 115.5t112 46q70 0 112.5 -45t42.5 -116q0 -70 -42.5 -116t-112.5 -46h-2q-68 0 -111 46t-43 115.5z" />
<glyph unicode="&#xb8;" horiz-adv-x="614" d="M102 -375l37 101q57 -31 111 -31q80 0 80 57q0 68 -160 80l92 174h141l-59 -102q59 -8 102 -47t43 -99q0 -88 -65.5 -130t-167.5 -42q-92 0 -154 39z" />
<glyph unicode="&#xb9;" horiz-adv-x="563" d="M45 1612l211 94h172v-799h-197v635h-2l-155 -72z" />
<glyph unicode="&#xba;" horiz-adv-x="761" d="M43 866q0 154 96.5 249t243.5 95h2q152 0 243 -93t91 -238q-2 -166 -101.5 -255t-238.5 -89q-143 0 -239.5 91t-96.5 240zM225 868q0 -86 44 -145t112 -59q70 0 112 58t42 150q0 80 -40 144.5t-116 64.5h-2q-74 0 -113 -65.5t-39 -147.5z" />
<glyph unicode="&#xbb;" horiz-adv-x="909" d="M47 133l258 383l-258 385h182l254 -385l-252 -383h-184zM414 133l256 383l-256 385h182l254 -385l-254 -383h-182z" />
<glyph unicode="&#xbc;" horiz-adv-x="1636" d="M80 1249l211 94h172v-798h-197v635h-2l-155 -72zM322 -23l765 1377h146l-766 -1377h-145zM860 197v106l371 504h217v-481h115v-129h-115v-197h-182v197h-406zM1044 328l5 -2h217v192q0 53 8 139h-6q-33 -61 -70 -122z" />
<glyph unicode="&#xbd;" horiz-adv-x="1636" d="M53 1249l211 94h172v-798h-196v635h-2l-156 -72zM279 -23l763 1377h144l-762 -1377h-145zM950 96l129 117q98 90 139.5 132t74 93t32.5 99q0 53 -35 85.5t-100 32.5q-90 0 -174 -59l-53 127q113 86 276 86q141 0 217 -68.5t76 -171.5q0 -72 -39 -140.5t-82 -111.5 t-131 -116l-55 -49v-5h321v-147h-596v96z" />
<glyph unicode="&#xbe;" horiz-adv-x="1636" d="M57 592l43 133q88 -53 195 -53q76 0 119 32.5t43 79.5q0 61 -56.5 92t-138.5 31h-57v119h55q66 0 119 25.5t53 78.5q0 37 -29.5 62t-89.5 25q-88 -1 -180 -52l-39 123q100 66 262 66q135 0 206 -56.5t71 -140.5q0 -63 -44 -112.5t-120 -71.5v-4q84 -10 139.5 -62.5 t55.5 -130.5q0 -104 -94.5 -172.5t-254.5 -68.5q-164 0 -258 57zM393 -23l764 1377h146l-764 -1377h-146zM881 197v106l370 504h217v-481h115v-129h-115v-197h-182v197h-405zM1065 328l4 -2h217v192q0 53 8 139h-6q-49 -92 -69 -122z" />
<glyph unicode="&#xbf;" horiz-adv-x="876" d="M98 -109q0 70 29 138.5t59.5 108.5t87.5 104q109 125 109 263v15v43h221l4 -53q1 -16 1 -32q0 -157 -124 -304q-131 -156 -131 -244q0 -68 43 -106.5t127 -40.5q117 0 205 61l59 -180q-133 -84 -319 -84q-180 0 -275.5 89t-95.5 222zM342 848q0 70 43 115t113 45h2 q68 0 110.5 -45t42.5 -115t-43 -115t-112.5 -45t-112.5 45t-43 115z" />
<glyph unicode="&#xc0;" horiz-adv-x="1302" d="M43 0l442 1380h322l448 -1380h-270l-125 391h-438l-119 -391h-260zM319 1700h279l180 -244h-203zM463 582h354l-108 340q-18 57 -70 258h-4q-2 -6 -26.5 -107.5t-39.5 -150.5z" />
<glyph unicode="&#xc1;" horiz-adv-x="1302" d="M43 0l442 1380h322l448 -1380h-270l-125 391h-438l-119 -391h-260zM463 582h354l-108 340q-18 57 -70 258h-4q-2 -6 -26.5 -107.5t-39.5 -150.5zM518 1454l180 246h279l-256 -246h-203z" />
<glyph unicode="&#xc2;" horiz-adv-x="1302" d="M43 0l442 1380h322l448 -1380h-270l-125 391h-438l-119 -391h-260zM352 1454l207 244h191l211 -244h-189l-115 133h-4l-114 -133h-187zM463 582h354l-108 340q-18 57 -70 258h-4q-2 -6 -26.5 -107.5t-39.5 -150.5z" />
<glyph unicode="&#xc3;" horiz-adv-x="1302" d="M43 0l442 1380h322l448 -1380h-270l-125 391h-438l-119 -391h-260zM385 1466v10q0 104 38 164q40 62 112 62q55 0 127 -41q66 -39 94 -39q27 0 39 17.5t16 66.5h121v-16q0 -213 -152 -213q-63 0 -129 41q-76 36 -91 36h-1q-45 0 -51 -88h-123zM463 582h354l-108 340 q-18 57 -70 258h-4q-2 -6 -26.5 -107.5t-39.5 -150.5z" />
<glyph unicode="&#xc4;" horiz-adv-x="1302" d="M43 0l442 1380h322l448 -1380h-270l-125 391h-438l-119 -391h-260zM334 1587q0 53 36 89t87 36t84.5 -36t33.5 -89q0 -51 -33.5 -87t-84.5 -36h-2q-51 0 -86 37t-35 86zM463 582h354l-108 340q-18 57 -70 258h-4q-2 -6 -26.5 -107.5t-39.5 -150.5zM739 1587q0 53 35 89 t88 36q51 0 85 -36t34 -89q0 -51 -34 -87t-87 -36h-2q-51 0 -85 36t-34 87z" />
<glyph unicode="&#xc5;" horiz-adv-x="1302" d="M43 0l442 1380h322l448 -1380h-270l-125 391h-438l-119 -391h-260zM426 1626q0 82 60.5 138.5t162.5 56.5h2q102 0 160.5 -55.5t58.5 -139.5q0 -82 -60 -136t-160.5 -54t-162 55t-61.5 135zM463 582h354l-108 340q-18 57 -70 258h-4q-2 -6 -26.5 -107.5t-39.5 -150.5z M553 1626q0 -39 26.5 -68.5t67.5 -29.5q43 0 69.5 28.5t26.5 71.5t-26.5 73t-69.5 30h-2q-43 0 -67.5 -31t-24.5 -74z" />
<glyph unicode="&#xc6;" horiz-adv-x="1703" d="M2 0l608 1380h967v-206h-576l43 -361h519v-205h-486l51 -401h514v-207h-731l-55 426h-412l-182 -426h-260zM522 631h305l-43 360q-18 141 -24 211h-6l-78 -209z" />
<glyph unicode="&#xc7;" horiz-adv-x="1212" d="M72 674q0 334 207.5 530.5t531.5 196.5q219 0 334 -60l-55 -200q-119 53 -269 53q-217 0 -350 -133t-133 -375q0 -231 127 -364.5t352 -133.5q160 1 277 50l41 -197q-117 -59 -340 -61l-43 -76q61 -14 103 -55.5t42 -104.5q0 -92 -66.5 -136t-162.5 -44q-98 0 -162 37 l37 112q44 -28 108 -28h4q80 0 80 57q0 63 -160 82l82 164q-274 33 -429.5 216t-155.5 470z" />
<glyph unicode="&#xc8;" horiz-adv-x="1054" d="M145 0v1380h803v-206h-551v-357h521v-205h-521v-405h582v-207h-834zM238 1700h278l180 -244h-202z" />
<glyph unicode="&#xc9;" horiz-adv-x="1054" d="M145 0v1380h803v-206h-551v-357h521v-205h-521v-405h582v-207h-834zM424 1454l180 246h279l-256 -246h-203z" />
<glyph unicode="&#xca;" horiz-adv-x="1054" d="M145 0v1380h803v-206h-551v-357h521v-205h-521v-405h582v-207h-834zM250 1454l207 244h190l211 -244h-188l-115 133h-4l-115 -133h-186z" />
<glyph unicode="&#xcb;" horiz-adv-x="1054" d="M145 0v1380h803v-206h-551v-357h521v-205h-521v-405h582v-207h-834zM219 1589q0 53 36 89t87 36t85 -36t34 -89q0 -51 -34 -87t-85 -36h-2q-51 0 -86 37t-35 86zM625 1589q0 53 34.5 89t88.5 36q51 0 84.5 -36t33.5 -89q0 -51 -34 -87t-87 -36h-2q-51 0 -84.5 36 t-33.5 87z" />
<glyph unicode="&#xcc;" horiz-adv-x="540" d="M-55 1700h278l180 -244h-202zM145 0v1380h252v-1380h-252z" />
<glyph unicode="&#xcd;" horiz-adv-x="540" d="M137 1454l180 246h279l-256 -246h-203zM145 0v1380h252v-1380h-252z" />
<glyph unicode="&#xce;" horiz-adv-x="540" d="M-33 1454l207 244h191l210 -244h-188l-115 133h-4l-114 -133h-187zM145 0v1380h252v-1380h-252z" />
<glyph unicode="&#xcf;" horiz-adv-x="540" d="M-53 1589q0 53 35.5 89t87 36t85 -36t33.5 -89q0 -51 -33.5 -87t-84.5 -36h-2q-51 0 -86 37t-35 86zM145 0v1380h252v-1380h-252zM352 1589q0 53 35 89t88 36q51 0 85 -36t34 -89q0 -51 -34 -87t-87 -36h-2q-51 0 -85 36t-34 87z" />
<glyph unicode="&#xd0;" horiz-adv-x="1411" d="M2 602v199h156v565q188 31 401 31q375 0 563 -158q217 -174 217 -516q0 -358 -215 -553q-211 -188 -626 -188q-188 0 -340 18v602h-156zM410 186q35 -6 141 -6q250 0 386 136.5t136 400.5v7q0 231 -125 352q-127 124 -366 124q-106 0 -172 -14v-385h317v-199h-317v-416z " />
<glyph unicode="&#xd1;" horiz-adv-x="1384" d="M143 0v1380h289l356 -592q141 -240 236 -462l4 2q-22 214 -22 542v29v481h233v-1380h-262l-361 608q-156 268 -245 475l-9 -2q14 -250 15 -587v-494h-234zM426 1466v10q0 104 38 164q40 62 111 62q55 0 127 -41q66 -39 95 -39q27 0 39 17.5t16 66.5h121v-16 q0 -213 -152 -213q-63 0 -129 41q-76 36 -91 36h-1q-45 0 -51 -88h-123z" />
<glyph unicode="&#xd2;" horiz-adv-x="1441" d="M74 680q0 317 183 520t474 203q293 0 466 -197.5t173 -500.5q0 -340 -183 -534t-474 -194h-2q-289 0 -463 198t-174 505zM340 686q0 -215 102.5 -360.5t278.5 -145.5h2q178 0 279.5 145.5t101.5 368.5q0 209 -100.5 357.5t-280.5 148.5t-281.5 -148.5t-101.5 -365.5z M395 1704h279l180 -244h-203z" />
<glyph unicode="&#xd3;" horiz-adv-x="1441" d="M74 680q0 317 183 520t474 203q293 0 466 -197.5t173 -500.5q0 -340 -183 -534t-474 -194h-2q-289 0 -463 198t-174 505zM340 686q0 -215 102.5 -360.5t278.5 -145.5h2q178 0 279.5 145.5t101.5 368.5q0 209 -100.5 357.5t-280.5 148.5t-281.5 -148.5t-101.5 -365.5z M592 1458l180 246h279l-256 -246h-203z" />
<glyph unicode="&#xd4;" horiz-adv-x="1441" d="M74 680q0 317 183 520t474 203q293 0 466 -197.5t173 -500.5q0 -340 -183 -534t-474 -194h-2q-289 0 -463 198t-174 505zM340 686q0 -215 102.5 -360.5t278.5 -145.5h2q178 0 279.5 145.5t101.5 368.5q0 209 -100.5 357.5t-280.5 148.5t-281.5 -148.5t-101.5 -365.5z M418 1458l207 244h190l211 -244h-188l-115 133h-4l-115 -133h-186z" />
<glyph unicode="&#xd5;" horiz-adv-x="1441" d="M74 680q0 317 183 520t474 203q293 0 466 -197.5t173 -500.5q0 -340 -183 -534t-474 -194h-2q-289 0 -463 198t-174 505zM340 686q0 -215 102.5 -360.5t278.5 -145.5h2q178 0 279.5 145.5t101.5 368.5q0 209 -100.5 357.5t-280.5 148.5t-281.5 -148.5t-101.5 -365.5z M449 1468v11q0 103 38 163q39 62 111 62q55 0 127 -41q66 -39 94 -39q27 0 39 17.5t16 66.5h121v-17q0 -212 -151 -212q-63 0 -129 41q-76 36 -91 36h-1q-46 0 -52 -88h-122z" />
<glyph unicode="&#xd6;" horiz-adv-x="1441" d="M74 680q0 317 183 520t474 203q293 0 466 -197.5t173 -500.5q0 -340 -183 -534t-474 -194h-2q-289 0 -463 198t-174 505zM340 686q0 -215 102.5 -360.5t278.5 -145.5h2q178 0 279.5 145.5t101.5 368.5q0 209 -100.5 357.5t-280.5 148.5t-281.5 -148.5t-101.5 -365.5z M397 1589q0 53 36 89t87 36t85 -36t34 -89q0 -51 -34 -87t-85 -36h-2q-51 0 -86 37t-35 86zM803 1589q0 53 34.5 89t88.5 36q51 0 84.5 -36t33.5 -89q0 -51 -33.5 -87t-86.5 -36h-2q-51 0 -85 36t-34 87z" />
<glyph unicode="&#xd7;" horiz-adv-x="1220" d="M82 117l414 422l-414 424l115 114l413 -424l416 424l113 -114l-414 -424l414 -422l-115 -117l-414 422l-413 -422z" />
<glyph unicode="&#xd8;" horiz-adv-x="1441" d="M74 686q0 313 183 515t470 202q180 0 322 -88l116 166l146 -101l-119 -174q178 -195 178 -506q0 -338 -183 -530.5t-464 -192.5q-178 0 -320 89l-124 -181l-140 111l121 176q-186 199 -186 514zM328 692q0 -162 73 -305h5l524 746q-91 71 -202 71h-3 q-186 0 -291.5 -146.5t-105.5 -365.5zM522 248q82 -72 201 -72q182 0 287.5 146.5t105.5 371.5q0 158 -67 291h-7z" />
<glyph unicode="&#xd9;" horiz-adv-x="1363" d="M143 590v790h252v-805q0 -197 76 -296t207 -99q291 0 291 395v805h252v-788q0 -309 -146.5 -462t-404.5 -153q-250 0 -388.5 148.5t-138.5 464.5zM365 1700h278l180 -244h-202z" />
<glyph unicode="&#xda;" horiz-adv-x="1363" d="M143 590v790h252v-805q0 -197 76 -296t207 -99q291 0 291 395v805h252v-788q0 -309 -146.5 -462t-404.5 -153q-250 0 -388.5 148.5t-138.5 464.5zM549 1454l180 246h279l-256 -246h-203z" />
<glyph unicode="&#xdb;" horiz-adv-x="1363" d="M143 590v790h252v-805q0 -197 76 -296t207 -99q291 0 291 395v805h252v-788q0 -309 -146.5 -462t-404.5 -153q-250 0 -388.5 148.5t-138.5 464.5zM397 1454l207 244h191l211 -244h-189l-115 133h-4l-114 -133h-187z" />
<glyph unicode="&#xdc;" horiz-adv-x="1363" d="M143 590v790h252v-805q0 -197 76 -296t207 -99q291 0 291 395v805h252v-788q0 -309 -146.5 -462t-404.5 -153q-250 0 -388.5 148.5t-138.5 464.5zM367 1589q0 53 35.5 89t87 36t85 -36t33.5 -89q0 -51 -34 -87t-85 -36h-2q-51 0 -85.5 37t-34.5 86zM772 1589q0 53 35 89 t88 36q51 0 85 -36t34 -89q0 -51 -34 -87t-87 -36h-2q-51 0 -85 36t-34 87z" />
<glyph unicode="&#xdd;" horiz-adv-x="1177" d="M23 1380h288l164 -354q74 -160 121 -274h4q39 102 119 274l166 354h284l-458 -798v-582h-252v575zM475 1448l180 246h279l-256 -246h-203z" />
<glyph unicode="&#xde;" horiz-adv-x="1142" d="M145 1380h248v-258q68 12 182 13q244 0 371 -113q125 -106 125 -285q0 -227 -146.5 -340.5t-383.5 -113.5q-90 0 -148 10v-293h-248v1380zM393 492q55 -12 139 -13q141 0 215 63.5t74 174t-71.5 167t-200.5 56.5q-99 0 -156 -12v-436z" />
<glyph unicode="&#xdf;" horiz-adv-x="1179" d="M135 0v901q0 315 152 457q129 119 340 119q174 0 289.5 -98.5t115.5 -266.5q0 -104 -49 -168q-129 -59 -129 -151q0 -68 84 -156q53 -55 79.5 -86t55.5 -96.5t29 -135.5q0 -154 -104.5 -248t-284.5 -94q-133 0 -219 37l34 189q72 -33 158 -33q78 0 121 38t43 97 q0 82 -90 172q-51 51 -77 81t-53.5 86t-27.5 114q0 166 172 254q16 37 17 80q0 86 -50.5 138t-132.5 52q-221 0 -221 -362v-920h-252z" />
<glyph unicode="&#xe0;" horiz-adv-x="1040" d="M66 274q0 184 156 282q152 95 424 95h11v17q0 68 -43 121t-159 53q-152 0 -269 -74l-49 164q143 88 361 88q221 0 316 -118t95 -304v-358q0 -158 17 -240h-228l-18 111h-6q-102 -133 -295 -134q-143 0 -228 88.5t-85 208.5zM201 1430h245l179 -304h-174zM315 301 q0 -70 40 -106.5t104 -36.5q74 0 126 40t72 97q7 18 7 55v137h-14q-334 0 -335 -186z" />
<glyph unicode="&#xe1;" horiz-adv-x="1040" d="M66 274q0 184 156 282q152 95 424 95h11v17q0 68 -43 121t-159 53q-152 0 -269 -74l-49 164q143 88 361 88q221 0 316 -118t95 -304v-358q0 -158 17 -240h-228l-18 111h-6q-102 -133 -295 -134q-143 0 -228 88.5t-85 208.5zM315 301q0 -70 40 -106.5t104 -36.5 q74 0 126 40t72 97q7 18 7 55v137h-14q-334 0 -335 -186zM393 1126l178 304h246l-250 -304h-174z" />
<glyph unicode="&#xe2;" horiz-adv-x="1040" d="M66 274q0 184 156 282q152 95 424 95h11v17q0 68 -43 121t-159 53q-152 0 -269 -74l-49 164q143 88 361 88q221 0 316 -118t95 -304v-358q0 -158 17 -240h-228l-18 111h-6q-102 -133 -295 -134q-143 0 -228 88.5t-85 208.5zM227 1126l199 304h170l201 -304h-174l-109 185 h-4l-111 -185h-172zM315 301q0 -70 40 -106.5t104 -36.5q74 0 126 40t72 97q7 18 7 55v137h-14q-334 0 -335 -186z" />
<glyph unicode="&#xe3;" horiz-adv-x="1040" d="M66 274q0 184 156 282q152 95 424 95h11v17q0 68 -43 121t-159 53q-152 0 -269 -74l-49 164q143 88 361 88q221 0 316 -118t95 -304v-358q0 -158 17 -240h-228l-18 111h-6q-102 -133 -295 -134q-143 0 -228 88.5t-85 208.5zM233 1151v20q0 101 38 160q42 64 118 64 q45 0 131 -43q66 -37 86 -37q27 0 40 19.5t16 68.5h122v-17q0 -221 -155 -221q-53 0 -135 43q-59 35 -84 35q-46 0 -52 -92h-125zM315 301q0 -70 40 -106.5t104 -36.5q74 0 126 40t72 97q7 18 7 55v137h-14q-334 0 -335 -186z" />
<glyph unicode="&#xe4;" horiz-adv-x="1040" d="M66 274q0 184 156 282q152 95 424 95h11v17q0 68 -43 121t-159 53q-152 0 -269 -74l-49 164q143 88 361 88q221 0 316 -118t95 -304v-358q0 -158 17 -240h-228l-18 111h-6q-102 -133 -295 -134q-143 0 -228 88.5t-85 208.5zM190 1280q0 53 37 89t92 36q51 0 86 -36 t35 -89t-35 -90t-88 -37h-2q-53 0 -89 37t-36 90zM315 301q0 -70 40 -106.5t104 -36.5q74 0 126 40t72 97q7 18 7 55v137h-14q-334 0 -335 -186zM598 1280q0 53 37 89t90 36t88 -36t35 -89t-35 -90t-88 -37h-4q-51 0 -87 37t-36 90z" />
<glyph unicode="&#xe5;" horiz-adv-x="1040" d="M66 274q0 184 156 282q152 95 424 95h11v17q0 68 -43 121t-159 53q-152 0 -269 -74l-49 164q143 88 361 88q221 0 316 -118t95 -304v-358q0 -158 17 -240h-228l-18 111h-6q-102 -133 -295 -134q-143 0 -228 88.5t-85 208.5zM299 1294q0 88 60.5 144.5t162.5 56.5h2 q100 0 159.5 -55.5t59.5 -143.5q0 -84 -61 -139t-160 -55q-100 0 -161.5 55t-61.5 137zM315 301q0 -70 40 -106.5t104 -36.5q74 0 126 40t72 97q7 18 7 55v137h-14q-334 0 -335 -186zM424 1296q0 -41 26.5 -72.5t69.5 -31.5q45 0 73 30.5t28 75.5t-27 76t-72 31h-2 q-43 0 -69.5 -32t-26.5 -77z" />
<glyph unicode="&#xe6;" horiz-adv-x="1617" d="M66 276q0 176 158 272q154 93 427 93h11v35q0 18 -8.5 41.5t-29 53.5t-65.5 50.5t-108 20.5q-143 0 -263 -76l-51 162q156 92 334 92q244 0 326 -184h6q115 184 342 184q106 0 189 -45t128 -118t66.5 -153.5t21.5 -162.5q0 -31 -6 -99h-647q0 -129 80 -201.5t211 -72.5 q154 0 274 55l39 -174q-141 -72 -348 -72q-129 0 -231.5 52.5t-147.5 146.5h-6q-117 -199 -373 -199q-154 0 -241.5 87.5t-87.5 211.5zM313 297q0 -66 42 -102.5t106 -36.5q145 0 196 135q11 22 11 65v123h-15q-339 0 -340 -184zM895 616h420v7q0 78 -45 151q-47 76 -154 76 q-102 0 -159.5 -75t-61.5 -159z" />
<glyph unicode="&#xe7;" horiz-adv-x="919" d="M72 489q0 231 149.5 381t405.5 150q135 0 243 -45l-45 -191q-78 39 -192 39q-139 0 -222 -92q-81 -90 -81 -224v-7q0 -150 86 -236t219 -86q105 0 199 39l34 -186q-92 -45 -245 -51l-43 -76q63 -14 105 -54t42 -104q0 -94 -66.5 -138t-164.5 -44q-96 0 -158 37l35 112 q45 -28 108 -28h4q80 0 80 57q0 66 -159 80l81 166q-190 27 -302.5 161t-112.5 340z" />
<glyph unicode="&#xe8;" horiz-adv-x="1056" d="M72 483q0 221 130 379t357 158q115 0 203 -44t135 -118t69.5 -154.5t22.5 -168.5q0 -62 -8 -107h-668q4 -127 91.5 -192.5t216.5 -65.5q145 0 276 45l37 -172q-147 -63 -348 -63q-240 0 -377 136t-137 367zM260 1430h246l178 -304h-174zM313 604h439v7q0 86 -46 160 q-49 77 -161 77q-106 0 -164 -76t-68 -168z" />
<glyph unicode="&#xe9;" horiz-adv-x="1056" d="M72 483q0 221 130 379t357 158q115 0 203 -44t135 -118t69.5 -154.5t22.5 -168.5q0 -62 -8 -107h-668q4 -127 91.5 -192.5t216.5 -65.5q145 0 276 45l37 -172q-147 -63 -348 -63q-240 0 -377 136t-137 367zM313 604h439v7q0 86 -46 160q-49 77 -161 77q-106 0 -164 -76 t-68 -168zM440 1126l178 304h246l-250 -304h-174z" />
<glyph unicode="&#xea;" horiz-adv-x="1056" d="M72 483q0 221 130 379t357 158q115 0 203 -44t135 -118t69.5 -154.5t22.5 -168.5q0 -62 -8 -107h-668q4 -127 91.5 -192.5t216.5 -65.5q145 0 276 45l37 -172q-147 -63 -348 -63q-240 0 -377 136t-137 367zM268 1126l199 304h170l201 -304h-174l-109 185h-4l-111 -185 h-172zM313 604h439v7q0 86 -46 160q-49 77 -161 77q-106 0 -164 -76t-68 -168z" />
<glyph unicode="&#xeb;" horiz-adv-x="1056" d="M72 483q0 221 130 379t357 158q115 0 203 -44t135 -118t69.5 -154.5t22.5 -168.5q0 -62 -8 -107h-668q4 -127 91.5 -192.5t216.5 -65.5q145 0 276 45l37 -172q-147 -63 -348 -63q-240 0 -377 136t-137 367zM233 1280q0 53 37 89t92 36q51 0 86 -36t35 -89t-35 -90 t-88 -37h-2q-53 0 -89 37t-36 90zM313 604h439v7q0 86 -46 160q-49 77 -161 77q-106 0 -164 -76t-68 -168zM641 1280q0 53 37 89t90 36t88 -36t35 -89t-35 -90t-88 -37h-4q-51 0 -87 37t-36 90z" />
<glyph unicode="&#xec;" horiz-adv-x="524" d="M-59 1430h245l179 -304h-175zM135 0v997h252v-997h-252z" />
<glyph unicode="&#xed;" horiz-adv-x="524" d="M135 0v997h252v-997h-252zM143 1126l179 304h245l-250 -304h-174z" />
<glyph unicode="&#xee;" horiz-adv-x="524" d="M-23 1126l199 304h170l201 -304h-174l-109 185h-4l-110 -185h-173zM135 0v997h252v-997h-252z" />
<glyph unicode="&#xef;" horiz-adv-x="524" d="M-68 1280q0 53 37 89t92 36q51 0 86 -36t35 -89t-35 -90t-88 -37h-2q-53 0 -89 37t-36 90zM135 0v997h252v-997h-252zM340 1280q0 53 37 89t90 36t88 -36t35 -89t-35 -90t-88 -37h-4q-51 0 -87 37t-36 90z" />
<glyph unicode="&#xf0;" horiz-adv-x="1146" d="M72 483q0 221 136 356.5t331 139.5q111 0 184 -61l4 6q-84 125 -207 213l-293 -131l-47 108l226 103q-90 61 -203 108l110 148q162 -66 308 -164l272 123l53 -107l-217 -96q166 -135 256 -318q86 -170 86 -389q0 -137 -43 -244.5t-114.5 -171t-159.5 -96.5t-185 -33 q-217 0 -357 138.5t-140 367.5zM332 485q0 -139 65.5 -232t171.5 -93h2q113 0 176.5 93t63.5 243q0 170 -57 243q-70 80 -179 80q-123 0 -183 -102.5t-60 -231.5z" />
<glyph unicode="&#xf1;" horiz-adv-x="1171" d="M127 997h219l12 -149h7q39 70 121.5 121t197.5 51q147 0 250.5 -104.5t103.5 -323.5v-592h-252v563q0 115 -46 183.5t-144 68.5q-72 0 -123 -43t-74 -104q-12 -31 -12 -80v-588h-252v700q0 125 -8 297zM313 1151v20q0 101 38 160q42 64 118 64q45 0 131 -43 q66 -37 86 -37q27 0 40 19.5t15 68.5h123v-17q0 -221 -155 -221q-53 0 -136 43q-59 35 -84 35q-45 0 -51 -92h-125z" />
<glyph unicode="&#xf2;" horiz-adv-x="1155" d="M72 492q0 242 143 385t373 143q221 0 358 -142.5t137 -369.5q0 -133 -44 -237.5t-116.5 -167t-162 -94.5t-187.5 -32h-2q-217 0 -358 139.5t-141 375.5zM283 1430h245l179 -304h-175zM332 498q0 -147 67.5 -242.5t178.5 -95.5h2q109 0 176 95t67 247q0 133 -61.5 234.5 t-179.5 101.5q-125 0 -187.5 -100.5t-62.5 -239.5z" />
<glyph unicode="&#xf3;" horiz-adv-x="1155" d="M72 492q0 242 143 385t373 143q221 0 358 -142.5t137 -369.5q0 -133 -44 -237.5t-116.5 -167t-162 -94.5t-187.5 -32h-2q-217 0 -358 139.5t-141 375.5zM332 498q0 -147 67.5 -242.5t178.5 -95.5h2q109 0 176 95t67 247q0 133 -61.5 234.5t-179.5 101.5 q-125 0 -187.5 -100.5t-62.5 -239.5zM453 1126l178 304h246l-250 -304h-174z" />
<glyph unicode="&#xf4;" horiz-adv-x="1155" d="M72 492q0 242 143 385t373 143q221 0 358 -142.5t137 -369.5q0 -133 -44 -237.5t-116.5 -167t-162 -94.5t-187.5 -32h-2q-217 0 -358 139.5t-141 375.5zM293 1126l199 304h170l200 -304h-174l-108 185h-5l-110 -185h-172zM332 498q0 -147 67.5 -242.5t178.5 -95.5h2 q109 0 176 95t67 247q0 133 -61.5 234.5t-179.5 101.5q-125 0 -187.5 -100.5t-62.5 -239.5z" />
<glyph unicode="&#xf5;" horiz-adv-x="1155" d="M72 492q0 242 143 385t373 143q221 0 358 -142.5t137 -369.5q0 -133 -44 -237.5t-116.5 -167t-162 -94.5t-187.5 -32h-2q-217 0 -358 139.5t-141 375.5zM303 1151v20q0 101 38 160q42 64 118 64q45 0 131 -43q66 -37 86 -37q27 0 40 19.5t15 68.5h123v-17 q0 -221 -156 -221q-53 0 -135 43q-59 35 -84 35q-45 0 -51 -92h-125zM332 498q0 -147 67.5 -242.5t178.5 -95.5h2q109 0 176 95t67 247q0 133 -61.5 234.5t-179.5 101.5q-125 0 -187.5 -100.5t-62.5 -239.5z" />
<glyph unicode="&#xf6;" horiz-adv-x="1155" d="M72 492q0 242 143 385t373 143q221 0 358 -142.5t137 -369.5q0 -133 -44 -237.5t-116.5 -167t-162 -94.5t-187.5 -32h-2q-217 0 -358 139.5t-141 375.5zM248 1280q0 53 37 89t92 36q51 0 86 -36t35 -89t-35 -90t-88 -37h-2q-53 0 -89 37t-36 90zM332 498 q0 -147 67.5 -242.5t178.5 -95.5h2q109 0 176 95t67 247q0 133 -61.5 234.5t-179.5 101.5q-125 0 -187.5 -100.5t-62.5 -239.5zM655 1280q0 53 37 89t90.5 36t88 -36t34.5 -89t-35 -90t-88 -37h-4q-51 0 -87 37t-36 90z" />
<glyph unicode="&#xf7;" horiz-adv-x="1220" d="M82 467v160h1057v-160h-1057zM479 905.5q0 59.5 37 97t94 37.5q59 0 94 -36.5t37 -98.5q0 -59 -36 -97t-95 -38h-2q-57 0 -93 38t-36 97.5zM479 188.5q0 59.5 37 97.5t94 38q59 0 94 -37t37 -99q0 -59 -36 -97t-95 -38h-2q-57 0 -93 38t-36 97.5z" />
<glyph unicode="&#xf8;" horiz-adv-x="1155" d="M72 496q0 238 142.5 381t365.5 143h2q135 0 245 -62l91 134l96 -68l-90 -133q159 -142 159 -384q0 -257 -149.5 -393.5t-353.5 -136.5q-141 0 -246 60l-94 -135l-93 73l89 129q-164 141 -164 392zM315 498q0 -119 52 -201h6l344 494q-57 47 -142 47q-131 0 -195.5 -102.5 t-64.5 -237.5zM442 207q49 -47 133 -47q121 0 193 94t72 244q0 113 -49 194l-5 2z" />
<glyph unicode="&#xf9;" horiz-adv-x="1165" d="M131 412v585h252v-542q0 -272 186 -273q72 0 122 40t71 95q14 29 14 78v602h252v-698q0 -135 8 -299h-219l-12 150h-6q-106 -172 -322 -173q-152 0 -249 103.5t-97 331.5zM279 1430h245l178 -304h-174z" />
<glyph unicode="&#xfa;" horiz-adv-x="1165" d="M131 412v585h252v-542q0 -272 186 -273q72 0 122 40t71 95q14 29 14 78v602h252v-698q0 -135 8 -299h-219l-12 150h-6q-106 -172 -322 -173q-152 0 -249 103.5t-97 331.5zM475 1126l178 304h246l-250 -304h-174z" />
<glyph unicode="&#xfb;" horiz-adv-x="1165" d="M131 412v585h252v-542q0 -272 186 -273q72 0 122 40t71 95q14 29 14 78v602h252v-698q0 -135 8 -299h-219l-12 150h-6q-106 -172 -322 -173q-152 0 -249 103.5t-97 331.5zM299 1126l199 304h170l200 -304h-174l-108 185h-4l-111 -185h-172z" />
<glyph unicode="&#xfc;" horiz-adv-x="1165" d="M131 412v585h252v-542q0 -272 186 -273q72 0 122 40t71 95q14 29 14 78v602h252v-698q0 -135 8 -299h-219l-12 150h-6q-106 -172 -322 -173q-152 0 -249 103.5t-97 331.5zM260 1280q0 53 37 89t92 36q51 0 86 -36t35 -89t-35 -90t-88 -37h-2q-53 0 -89 37t-36 90z M668 1280q0 53 36.5 89t90 36t88.5 -36t35 -89t-35 -90t-88 -37h-4q-51 0 -87 37t-36 90z" />
<glyph unicode="&#xfd;" horiz-adv-x="1024" d="M16 997h279l178 -534q33 -100 57 -193h7q39 150 53 195l155 532h269l-250 -680q-102 -276 -180 -419.5t-166 -221.5q-127 -109 -264 -127l-58 211q74 16 146 70q88 57 139 158q14 33 14 45q0 20 -12 49zM420 1126l178 304h246l-250 -304h-174z" />
<glyph unicode="&#xfe;" horiz-adv-x="1198" d="M135 -406v1786h252v-520h4q102 160 316 160h10q169 0 287 -136q122 -141 122 -374q0 -258 -136 -395.5t-316 -137.5q-186 0 -283 134h-4v-517h-252zM387 401q0 -53 25 -94q27 -61 82 -98t124 -37q115 0 183.5 90t68.5 244q0 135 -65.5 225t-177.5 90q-74 0 -133.5 -41 t-85.5 -110q-21 -49 -21 -92v-177z" />
<glyph unicode="&#xff;" horiz-adv-x="1024" d="M16 997h279l178 -534q33 -100 57 -193h7q39 150 53 195l155 532h269l-250 -680q-102 -276 -180 -419.5t-166 -221.5q-127 -109 -264 -127l-58 211q74 16 146 70q88 57 139 158q14 33 14 45q0 20 -12 49zM207 1280q0 53 37 89t92 36q51 0 86 -36t35 -89t-35 -90t-88 -37 h-2q-53 0 -89 37t-36 90zM614 1280q0 53 37 89t90.5 36t88 -36t34.5 -89t-35 -90t-88 -37h-4q-51 0 -87 37t-36 90z" />
<glyph unicode="&#x152;" horiz-adv-x="1878" d="M74 680q0 332 189.5 527.5t498.5 195.5q59 0 182 -10q102 -12 131 -13h694v-206h-550v-357h520v-205h-520v-405h581v-207h-745q-8 0 -131 -10q-98 -12 -168 -13q-326 0 -504 200t-178 503zM340 690q0 -229 122 -369.5t337 -140.5q107 0 168 25v966q-78 29 -187 29 q-197 0 -318.5 -137t-121.5 -373z" />
<glyph unicode="&#x153;" horiz-adv-x="1773" d="M72 494q0 238 139 382t354 144q119 0 216.5 -53.5t146.5 -151.5h4q117 205 356 205q113 0 199 -45t132 -119t67.5 -154.5t21.5 -166.5q0 -66 -8 -103h-651q2 -123 86 -193.5t213 -70.5q135 0 272 53l39 -172q-129 -72 -346 -72q-262 0 -379 203h-6 q-57 -100 -158.5 -151.5t-220.5 -51.5q-205 0 -341 141.5t-136 375.5zM332 496q0 -143 66.5 -239.5t174.5 -96.5q111 0 175.5 92t64.5 246q0 141 -60.5 240.5t-177.5 99.5h-2q-125 0 -183 -103.5t-58 -238.5zM1044 606h426v7q0 86 -44 159q-46 76 -160 76q-102 0 -158 -76 t-64 -166z" />
<glyph unicode="&#x178;" horiz-adv-x="1177" d="M23 1380h288l164 -354q74 -160 121 -274h4q39 102 119 274l166 354h284l-458 -798v-582h-252v575zM285 1581q0 53 35.5 89t87 36t85 -36t33.5 -89q0 -51 -33.5 -87t-84.5 -36h-2q-51 0 -86 37t-35 86zM690 1581q0 53 35 89t88 36q51 0 85 -36t34 -89q0 -51 -34 -87 t-87 -36h-2q-51 0 -85 36t-34 87z" />
<glyph unicode="&#x2c6;" horiz-adv-x="614" d="M23 1126l198 304h170l201 -304h-174l-109 185h-4l-110 -185h-172z" />
<glyph unicode="&#x2dc;" horiz-adv-x="614" d="M33 1151v20q0 101 38 159q42 65 117 65q45 0 131 -43q66 -37 87 -37q27 0 40 19.5t15 68.5h123v-17q0 -221 -156 -221q-53 0 -135 43q-59 35 -84 35q-45 0 -51 -92h-125z" />
<glyph unicode="&#x2000;" horiz-adv-x="910" />
<glyph unicode="&#x2001;" horiz-adv-x="1821" />
<glyph unicode="&#x2002;" horiz-adv-x="910" />
<glyph unicode="&#x2003;" horiz-adv-x="1821" />
<glyph unicode="&#x2004;" horiz-adv-x="607" />
<glyph unicode="&#x2005;" horiz-adv-x="455" />
<glyph unicode="&#x2006;" horiz-adv-x="303" />
<glyph unicode="&#x2007;" horiz-adv-x="303" />
<glyph unicode="&#x2008;" horiz-adv-x="227" />
<glyph unicode="&#x2009;" horiz-adv-x="364" />
<glyph unicode="&#x200a;" horiz-adv-x="101" />
<glyph unicode="&#x2010;" horiz-adv-x="645" d="M61 459v174h523v-174h-523z" />
<glyph unicode="&#x2011;" horiz-adv-x="645" d="M61 459v174h523v-174h-523z" />
<glyph unicode="&#x2012;" horiz-adv-x="645" d="M61 459v174h523v-174h-523z" />
<glyph unicode="&#x2013;" horiz-adv-x="1024" d="M61 440v160h902v-160h-902z" />
<glyph unicode="&#x2014;" horiz-adv-x="2048" d="M61 440v160h1926v-160h-1926z" />
<glyph unicode="&#x2018;" horiz-adv-x="483" d="M61 879q90 305 222 524l155 14q-96 -268 -133 -518z" />
<glyph unicode="&#x2019;" horiz-adv-x="483" d="M59 879q97 276 134 520l243 20q-88 -303 -221 -524z" />
<glyph unicode="&#x201a;" horiz-adv-x="483" d="M37 -225q96 268 133 518l244 20q-90 -305 -221 -524z" />
<glyph unicode="&#x201c;" horiz-adv-x="837" d="M61 879q90 305 222 524l155 14q-94 -252 -133 -518zM418 879q98 317 221 524l156 14q-96 -268 -133 -518z" />
<glyph unicode="&#x201d;" horiz-adv-x="837" d="M59 879q97 276 134 520l243 20q-96 -313 -221 -524zM416 879q94 258 133 520l244 20q-88 -303 -222 -524z" />
<glyph unicode="&#x201e;" horiz-adv-x="843" d="M35 -225q96 268 133 518l244 20q-99 -317 -222 -524zM391 -225q94 252 133 518l244 20q-90 -305 -221 -524z" />
<glyph unicode="&#x2022;" horiz-adv-x="641" d="M78 535v5q0 97 70 166q71 72 173.5 72t173 -70.5t70.5 -173t-70.5 -173t-172.5 -70.5h-3q-100 0 -170.5 69.5t-70.5 174.5z" />
<glyph unicode="&#x2026;" horiz-adv-x="2048" d="M186 139.5q0 69.5 44 115.5t112 46q70 0 113 -45t43 -117q0 -70 -43 -116t-113 -46h-2q-68 0 -111 46.5t-43 116zM870 139.5q0 69.5 44 115.5t112 46q70 0 113 -45t43 -117q0 -70 -43 -116t-113 -46h-2q-68 0 -111 46.5t-43 116zM1554 139.5q0 69.5 44 115.5t112 46 q70 0 113 -45t43 -117q0 -70 -43 -116t-113 -46h-2q-68 0 -111 46.5t-43 116z" />
<glyph unicode="&#x202f;" horiz-adv-x="364" />
<glyph unicode="&#x2039;" horiz-adv-x="540" d="M55 516l252 385h187l-258 -385l258 -383h-185z" />
<glyph unicode="&#x203a;" horiz-adv-x="540" d="M45 133l258 383l-258 385h182l256 -385l-254 -383h-184z" />
<glyph unicode="&#x205f;" horiz-adv-x="455" />
<glyph unicode="&#x20ac;" d="M14 725v127h138q35 184 153 311q174 190 443 191q162 0 292 -64l-51 -188q-106 53 -229 53q-160 0 -260 -113q-63 -68 -90 -190h536v-127h-561q-4 -23 -4 -74v-33h567v-126h-545q20 -129 89 -199q102 -111 274 -111q127 1 242 60l43 -183q-135 -82 -314 -82 q-293 0 -463 211q-102 123 -129 304h-129v126h113v31q0 31 4 76h-119z" />
<glyph unicode="&#x2122;" horiz-adv-x="1302" d="M59 1264v116h478v-116h-168v-441h-144v441h-166zM573 823l37 557h221l64 -198q20 -86 35 -162h2q35 141 39 160l65 200h207l35 -557h-139l-15 281q-2 27 -2 90v100h-8l-24 -103q-17 -69 -23 -91l-78 -269h-141l-72 273l-37 190h-8q-6 -186 -6 -190l-14 -281h-138z" />
<glyph unicode="&#xe000;" horiz-adv-x="995" d="M0 995h995v-995h-995v995z" />
<glyph unicode="&#xfb01;" horiz-adv-x="1144" d="M29 809v188h135v47q0 201 130 317t351 116q178 0 277 -64l-58 -190q-90 53 -219 53q-231 0 -231 -238v-41h594v-997h-252v809h-340v-809h-252v809h-135z" />
<glyph unicode="&#xfb02;" horiz-adv-x="1144" d="M29 809v188h135v43q0 207 147 330q131 106 353 107q205 0 346 -76v-1401h-252v1264q-39 22 -124 22h-7q-111 0 -162 -67.5t-51 -176.5v-45h204v-188h-202v-809h-252v809h-135z" />
<glyph unicode="&#xfb03;" horiz-adv-x="1763" d="M29 809v188h135v25q0 207 125 330q104 100 278 100q94 0 176 -39l-61 -182q-47 26 -100 26h-4q-70 0 -109 -43q-55 -57 -55 -186v-31h370v47q0 201 130 317t352 116q160 -1 264 -58l-60 -190q-90 47 -204 47q-231 0 -232 -238v-41h594v-997h-252v809h-340v-809h-252v809 h-368v-809h-252v809h-135z" />
<glyph unicode="&#xfb04;" horiz-adv-x="1763" d="M29 809v188h135v17q0 217 121 332q111 106 299 106q85 0 161 -33l-57 -184q-49 22 -101 22h-5q-70 0 -113 -43q-55 -57 -55 -184v-33h370v43q0 207 148 330q131 106 350 107q205 0 346 -76v-1401h-252v1264q-39 22 -124 22h-7q-109 0 -160 -67.5t-51 -176.5v-45h205v-188 h-203v-809h-252v809h-368v-809h-252v809h-135z" />
</font>
</defs>
</svg>
